#TITLE:Lian Dai Guan Xi;
#SUBTITLE:;
#ARTIST:Twins;
#TITLETRANSLIT:Lian Dai Guan Xi;
#SUBTITLETRANSLIT:;
#ARTISTTRANSLIT:Twins;
#CREDIT:;
#BANNER:Quan He Lien Doi-bn.png;
#BACKGROUND:Quan He Lien Doi-bg.png;
#LYRICSPATH:;
#CDTITLE:pm4cd.png;
#MUSIC:Quan He Lien Doi.mp3;
#OFFSET:0.300;
#SAMPLESTART:19.760;
#SAMPLELENGTH:20.000;
#SELECTABLE:YES;
#BPMS:0.000=98.040;
#STOPS:;
#BGCHANGES:0.000=Lian Dai Guan Xi.avi=1.000=0=0=1,
99999=-nosongbg-=1.000=0=0=0 // don't automatically add -songbackground-
;
// cache tags:
#FIRSTBEAT:1.375;
#LASTBEAT:312.875;
#SONGFILENAME:Songs/Music V.I.P ^_^/Lian Dai Guan Xi/Quan He Lien Doi.sm;
#HASMUSIC:1;
#HASBANNER:1;
#MUSICLENGTH:194.596;
// end cache tags

//---------------dance-single - ----------------
#NOTES:
     dance-single:
     :
     Hard:
     11:
     1.000,0.985,1.000,0.755,1.000,678.000,390.000,147.000,0.000,335.000:
0000
0000
0000
0000
0000
0000
0000
0000
0000
0000
0000
0100
0000
0000
0000
0010
0000
0000
0000
0000
0000
0100
0000
0000
0000
0000
0000
0001
0000
0000
0000
0010
,
0000
0002
0000
0000
0000
0000
0000
0000
0000
0000
0000
0103
0000
0000
0000
0001
0000
0000
0000
0000
0000
1000
0000
0000
0000
0000
0000
0010
0000
0000
0000
0100
,
0000
2000
0000
0000
0000
0000
0000
0000
0000
0000
0000
3100
0000
0000
0000
0010
0000
0000
0000
0000
0000
0001
0000
0000
0000
0000
0000
0100
0000
0000
0000
1000
,
0000
0200
0000
0000
0000
0000
0000
0000
0000
0000
0000
0301
0000
0000
0000
0010
0000
0000
0000
0000
0000
1000
0000
0000
0000
0000
0000
0010
0000
0000
0000
0100
,
0000
0001
0000
0110
0000
0000
0000
1000
0000
0000
0000
0111
0000
0000
0000
1000
0000
0000
0000
0011
0000
0000
0000
0100
0000
0000
0000
1011
0000
1011
0000
1011
,
0000
0000
0000
0110
0000
0000
0000
0001
0000
0000
0000
1101
0000
0000
0000
0010
0000
0000
0000
1001
0000
0000
0000
0100
0000
0000
0000
0111
0000
0000
0000
1011
,
0000
0000
0000
0101
0000
0000
0000
0010
0000
0000
0000
1110
0000
0000
0000
0100
0000
0000
0000
1001
0000
0000
0000
0010
0000
0000
0000
1101
0000
1101
0000
1101
,
0000
0000
0000
0011
0000
0000
0000
1000
0000
0000
0000
0111
0000
0000
0000
1000
0000
0000
0000
1110
0000
0000
0000
1000
0000
0000
0000
0111
0000
0000
0000
0111
,
0000
0000
0000
0000
0000
0000
2120
0000
0000
0000
0000
0000
0000
0000
0100
0000
0000
0000
0001
0000
0000
0030
3111
0000
0000
0000
0000
0000
0000
0000
1000
0000
0000
0000
0000
0000
0000
0000
0110
0000
0000
0000
0000
0000
0000
0000
0001
0000
0000
0000
0000
0000
0000
0000
1101
0000
0000
0000
1101
0000
0000
0000
1101
0000
,
0000
0000
0000
0110
0000
0000
0000
0001
0000
0100
0000
1011
0000
0000
0000
0100
0000
0000
0000
1001
0000
0000
0000
0001
0000
0000
0000
1110
0000
0000
0000
1110
,
0000
0000
0000
0101
0000
0000
0000
0010
0000
0100
0000
1011
0000
0000
0000
0100
0000
0000
0000
0011
0000
0000
0000
1000
0000
0000
0000
1101
0000
1101
0000
1101
,
0000
0000
0000
0101
0000
0000
0000
0010
0000
0000
0000
1100
0000
0000
0000
0010
0000
0000
0000
1001
0000
0000
0000
0100
0000
0000
0000
0111
0000
0000
0000
1110
,
0000
0000
0000
0111
0000
0000
0000
1000
0000
0100
0000
1011
0000
0000
0000
0100
0000
0000
0000
0011
0000
0000
0000
1000
0000
0000
0000
1011
0000
1011
0000
1011
,
0000
0000
0000
1100
0000
0000
0000
0001
0000
0010
0000
1101
0000
0000
0000
0010
0000
0000
0000
0101
0000
0000
0000
1000
0000
0000
0000
1011
0000
0000
0000
1101
,
0000
0000
0000
1011
0000
0000
0000
0100
0000
0001
0000
1110
0000
0000
0000
0001
0000
0000
0000
0011
0000
0000
0000
0010
0000
0000
0000
0111
0000
0111
0000
0111
,
0000
0000
0000
1100
0000
0000
0000
0001
0000
0000
0000
0110
0000
0000
0000
1000
0000
0000
0000
0101
0000
0000
0000
0010
0000
0000
0000
1101
0000
0000
0000
1011
,
0000
0000
0000
0000
0000
0000
0000
0000
0000
0000
0000
0000
0000
0000
0000
0000
0000
0000
2000
0000
0000
0000
0000
0000
0000
0000
0200
0000
0000
0000
0000
0000
0000
0000
0020
0000
0000
0000
0000
0000
0000
0000
0002
0000
0000
0000
0000
0000
0000
0000
0000
0000
0000
0000
3000
0000
0000
0000
0300
0000
0000
0000
0030
0000
0000
0000
1113
0000
0000
0000
0000
0000
0000
0000
0000
0000
0000
0000
0000
0000
0000
0000
0000
0000
0000
0000
0000
0000
0000
0000
0001
0000
0000
0000
0000
0000
0000
0000
0000
0000
0000
0000
0000
0000
0000
0000
0000
0000
0000
0000
0000
0000
0000
0000
0010
0000
0000
0000
0000
0000
0000
0000
0000
0000
0000
0000
0000
0000
0000
0000
0000
0000
0000
0000
0000
0000
0000
0000
0100
0000
0000
0000
0000
0000
0000
0000
0000
0000
0000
0000
0000
0000
0000
0000
0000
0000
0000
0000
0000
0000
0000
0000
1000
0000
0000
0000
0000
0000
0000
0000
0000
0000
0000
0000
0000
0000
0000
0000
0000
0000
0000
0000
0000
0000
0000
0000
0100
0000
0000
0000
0000
0000
,
0000
0010
0000
0000
0000
0000
0000
1101
0000
0000
0000
1011
0000
0000
0000
0100
0000
0000
0000
0010
0000
0000
0000
0001
0000
0000
0000
0010
0000
0000
0000
0100
,
0000
1000
0000
0000
0000
0000
0000
0111
0000
1000
0000
0111
0000
0000
0000
1000
0000
0000
0000
0101
0000
0000
0000
0010
0000
0000
0000
1110
0000
1110
0000
1110
,
0000
0000
0000
0110
0000
0000
0000
0001
0000
0100
0000
1011
0000
0000
0000
0010
0000
0000
0000
1100
0000
0000
0000
0010
0000
0000
0000
1101
0000
0000
0000
1101
,
0000
0000
0000
0011
0000
0000
0000
1000
0000
0010
0000
1101
0000
0000
0000
1000
0000
0000
0000
0110
0000
0000
0000
0001
0000
0000
0000
1101
0000
1101
0000
1101
,
0000
0000
0000
1100
0000
0000
0000
0010
0000
0000
0000
1101
0000
0000
0000
1000
0000
0000
0000
0011
0000
0000
0000
0100
0000
0000
0000
0111
0000
0000
0000
1110
,
0000
0000
0000
0111
0000
0111
0000
1000
0000
0100
0000
1011
0000
0000
0000
0100
0000
0000
0000
0011
0000
0000
0000
1000
0000
0000
0000
1011
0000
1011
0000
1011
,
0000
0000
0000
1100
0000
0000
0000
0001
0000
1000
0000
0111
0000
0000
0000
1000
0000
0000
0000
0011
0000
0000
0000
0100
0000
0000
0000
1011
0000
0000
0000
1101
,
0000
0000
0000
1011
0000
0000
0000
0100
0000
0010
0000
1101
0000
0000
0000
0001
0000
0000
0000
1010
0000
0000
0000
0100
0000
0000
0000
0111
0000
0111
0000
0111
,
0000
0000
0000
1100
0000
0000
0000
0010
0000
0000
0000
0111
0000
0000
0000
0010
0000
0000
0000
1100
0000
0000
0000
0001
0000
0000
0000
1110
0000
0000
0000
1110
,
0000
0000
0000
0110
0000
1101
0000
1101
0000
0010
0000
1102
0000
0000
0000
1000
0000
0000
0000
0110
0000
0000
0000
1000
0000
0000
0000
1110
0000
1110
0000
1110
,
0000
2003
0000
0000
0000
0001
0000
0010
0000
0100
0000
0211
0000
0000
0000
3001
0000
0000
0000
1001
0000
0000
0000
0010
0000
0000
0000
1011
0000
0000
0000
1011
,
0000
0300
0000
1101
0000
0000
0000
0010
0000
1000
0000
0121
0000
0000
0000
1000
0000
0000
0000
0101
0000
0000
0000
1000
0000
0000
0000
1101
0000
1101
0000
1101
,
0000
0030
0000
0111
0000
0000
0000
1000
0000
0000
0000
0111
0000
0000
0000
0010
0000
0000
0000
1101
0000
0000
0000
0010
0000
0000
0000
1110
0000
0000
0000
0111
,
0000
0000
0000
2022
0000
3000
0000
0130
0000
0013
0000
1101
0000
0000
0000
0010
0000
0000
0000
1101
0000
0000
0000
0001
0000
0000
0000
0111
0000
0111
0000
0111
,
0000
0000
0000
1110
0000
0000
0000
1000
0000
0010
0000
1101
0000
0000
0000
0010
0000
0000
0000
1101
0000
0000
0000
0001
0000
0000
0000
1011
0000
0000
0000
1101
,
0000
0000
0000
1011
0000
0000
0000
0100
0000
1000
0000
0111
0000
0000
0000
1000
0000
0000
0000
1101
0000
0000
0000
0010
0000
0000
0000
1011
0000
1011
0000
1011
,
0000
0000
0000
1101
0000
0000
0000
0001
0000
0000
0000
1110
0000
0000
0000
0011
0000
0000
0000
1101
0000
0000
0000
0110
0000
0000
0000
1011
0000
0000
0000
1101
,
0000
0000
0000
1011
0000
0000
0000
0100
0000
0001
0000
1110
0000
0000
0000
0001
0000
0000
0000
1101
0000
0000
0000
0100
0000
0000
0000
1110
0000
1110
0000
1110
,
0000
0000
0000
0111
0000
0000
0000
1000
0000
0001
0000
1110
0000
0000
0000
0001
0000
0000
0000
0111
0000
0000
0000
1000
0000
0000
0000
1101
0000
0000
0000
1011
,
0000
0000
0000
1101
0000
0000
0000
0001
0000
0100
0000
1011
0000
0000
0000
0100
0000
0000
0000
1110
0000
0000
0000
0001
0000
0000
0000
1011
0000
1011
0000
1011
,
0000
0000
0000
1101
0000
0000
0000
0010
0000
0000
0000
1101
0000
0000
0000
0011
0000
0000
0000
1110
0000
0000
0000
1100
0000
0000
0000
0111
0000
0000
0000
1110
,
0000
0000
0000
0111
0000
0000
0000
0000
0000
0000
0000
1011
0000
0000
0000
0010
0000
0000
0000
0001
0000
0000
0000
0100
0000
0000
0000
1101
0000
1101
0000
1101
,
0000
0000
0000
0111
0000
0000
0000
2000
0000
3200
0000
2322
0000
0000
0000
0000
0000
3003
0000
2230
0000
0000
0000
0000
0000
0000
0000
3320
0000
0032
0000
0023
,
0000
0032
0000
2200
0000
3300
0000
0203
0000
0320
0000
0032
0000
0000
0000
0000
0000
0000
0000
2023
0000
0000
0000
0000
0000
0000
0000
3230
0000
2300
0000
3200
,
0000
0320
0000
2002
0000
3003
0000
0032
0000
0023
0000
0230
0000
0000
0000
0000
0000
0000
0000
2302
0000
0000
0000
0000
0000
0000
0000
3203
0000
0320
0000
0032
,
0000
0000
0000
0220
0000
0330
0000
0023
0000
0000
0000
0230
0000
0000
0000
2300
0000
0000
0000
0202
0000
0000
0000
3323
0000
0000
0000
0230
0000
0000
0000
2300
,
0000
0000
0000
0200
0000
3000
0000
0010
0000
1000
0000
2322
0000
0000
0000
3030
0000
0000
0000
0223
0000
0000
0000
0000
0000
0000
0000
2330
0000
3200
0000
0320
,
0000
0032
0000
2200
0000
3300
0000
0023
0000
0230
0000
2300
0000
0000
0000
0000
0000
0000
0000
3202
0000
0000
0000
0000
0000
0000
0000
0323
0000
0032
0000
0023
,
0000
0230
0000
0022
0000
0033
0000
0320
0000
0230
0000
2300
0000
0000
0000
0000
0000
0000
0000
3202
0000
0000
0000
0000
0000
0000
0000
0323
0000
0230
0000
0320
,
0000
0230
0000
0022
0000
0033
0000
0320
0000
0000
0000
2030
0000
0000
0000
3200
0000
0000
0000
0322
0000
0000
0000
0233
0000
0000
0000
2300
0000
0000
0000
3200
,
0000
0320
0000
0202
0000
0303
0000
0001
0000
0100
0000
1132
0000
0000
0000
0010
0000
0000
0000
0110
0000
0000
0000
1000
0000
0000
0000
1110
0000
1110
0000
1110
,
0000
0000
0000
1113
0000
0001
0000
0100
0000
0010
0000
1201
0000
0000
0000
0010
0000
0000
0000
1001
0000
0000
0000
0010
0000
0000
0000
1011
0000
0000
0000
1011
,
0000
0000
0000
1311
0000
0000
0000
0100
0000
0001
0000
2110
0000
0000
0000
0001
0000
0000
0000
0110
0000
0000
0000
0010
0000
0000
0000
0111
0000
0111
0000
0111
,
0000
0000
0000
3111
0000
0000
0000
1000
0000
0000
0000
0111
0000
0000
0000
0010
0000
0000
0000
1101
0000
0000
0000
0010
0000
0000
0000
1011
0000
0000
0000
0111
,
0000
0000
0000
2220
0000
0030
0000
0301
0000
3010
0000
1101
0000
0000
0000
0010
0000
0000
0000
1101
0000
0000
0000
0001
0000
0000
0000
1110
0000
1110
0000
1110
,
0000
0000
0000
0111
0000
0000
0000
1000
0000
0010
0000
1101
0000
0000
0000
0010
0000
0000
0000
1110
0000
0000
0000
0100
0000
0000
0000
0111
0000
0000
0000
1101
,
0000
0000
0000
0111
0000
0000
0000
1000
0000
0010
0000
1101
0000
0000
0000
0010
0000
0000
0000
1101
0000
0000
0000
0001
0000
0000
0000
0111
0000
0111
0000
0111
,
0000
0000
0000
1110
0000
0000
0000
0001
0000
0000
0000
1110
0000
0000
0000
0110
0000
0000
0000
1101
0000
0000
0000
0011
0000
0000
0000
1110
0000
0000
0000
0111
,
0000
0000
0000
1011
0000
0000
0000
0001
0000
1000
0000
0111
0000
0000
0000
1000
0000
0000
0000
0111
0000
0000
0000
0001
0000
0000
0000
1011
0000
1011
0000
1011
,
0000
0000
0000
1101
0000
0000
0000
0010
0000
0001
0000
1110
0000
0000
0000
0100
0000
0000
0000
0111
0000
0000
0000
1000
0000
0000
0000
1101
0000
0000
0000
1011
,
0000
0000
0000
1101
0000
0000
0000
1000
0000
0010
0000
1101
0000
0000
0000
0001
0000
0000
0000
1110
0000
0000
0000
1000
0000
0000
0000
1011
0000
1011
0000
1011
,
0000
0000
0000
1101
0000
0000
0000
0010
0000
0000
0000
1101
0000
0000
0000
0101
0000
0000
0000
1110
0000
0000
0000
1100
0000
0000
0000
0111
0000
0000
0000
1011
,
0000
0000
0000
2220
0000
3000
0000
0300
0000
0030
0000
1112
0000
0000
0000
0100
0000
0000
0000
1110
0000
0000
0000
0000
0000
0000
0000
1110
0000
1110
0000
1110
,
0000
0000
0003
0111
0000
0000
0000
1000
0000
0000
0000
1011
0000
0000
0000
2000
0000
0000
0000
3200
0000
0000
0000
0320
0000
0230
0000
1312
0000
1110
0003
0111
,
0000
0000
0000
2000
0000
3200
0000
0000
0000
0000
0000
1321
0000
0000
0000
0000
0000
0000
0000
1101
0000
0000
0000
0000
0000
0000
0000
1131
0000
0000
0000
1101
,
0000
1101
0000
1110
0000
1110
0000
0000
0000
0000
0000
1011
0000
0000
0000
0000
0000
0000
0000
1211
0000
0000
0000
0000
0000
0000
0000
1011
0000
1011
0000
1011
,
0000
0000
0300
0111
0000
0000
0000
0000
0000
0000
0000
1121
0000
0000
0000
0000
0000
0000
0000
1101
0000
0000
0000
0000
0000
0000
0000
1101
0000
0000
0000
0000
,
0000
0000
0000
1101
0000
1000
0000
0100
0000
1000
0000
1131
0000
0000
0000
0002
0000
0000
0000
0223
0000
0300
0000
0230
0000
2300
0000
3211
0000
1321
0000
1132
,
0000
0000
0000
0023
0000
0230
0000
0000
0000
0000
0000
2322
0000
0033
0000
0000
0000
0000
0000
0111
0000
0000
0000
0000
0000
0000
0000
0111
0000
0000
0000
0000
,
0000
0000
0000
3111
0000
0002
0000
0000
0000
0000
0000
1110
0000
0000
0000
0000
0000
0000
0000
1110
0000
0000
0000
0000
0000
0000
0003
1101
0000
0001
0000
1011
,
0000
0001
0000
1101
0000
0000
0000
0101
0000
0010
0000
1101
0000
0000
0000
0011
0000
0000
0000
1110
0000
0000
0000
1001
0000
0000
0000
0110
0000
0000
0000
1110
,
0000
0000
0000
0111
0000
0000
0000
1001
0000
1000
0000
0111
0000
0000
0000
1001
0000
0000
0000
1110
0000
0000
0000
0110
0000
0000
0000
0101
0000
0000
0000
1011
,
0000
0000
0000
1101
0000
0000
0000
0011
0000
0010
0000
1110
0000
0000
0000
1001
0000
0000
0000
1101
0000
0000
0000
0011
0000
0000
0000
1101
0000
0000
0000
0011
,
0000
0000
0000
1110
0000
0000
0000
0110
0000
0000
0000
1011
0000
0000
0000
1100
0000
0000
0000
0111
0000
0000
0000
0110
0000
0000
0000
1101
0000
0000
0000
1011
,
0000
0000
0000
2202
0000
0003
0000
0311
0000
3010
0000
1011
0000
0000
0000
0101
0000
0000
0000
1110
0000
0000
0000
0110
0000
0000
0000
0111
0000
0111
0000
0111
,
0000
0000
0000
1101
0000
0000
0000
1001
0000
0001
0000
0111
0000
0000
0000
1100
0000
0000
0000
1011
0000
0000
0000
0110
0000
0000
0000
1110
0000
0000
0000
0111
,
0000
0000
0000
1101
0000
0000
0000
1010
0000
1000
0000
1110
0000
0000
0000
0101
0000
0000
0000
1011
0000
0000
0000
1100
0000
0000
0000
1011
0000
1011
0000
1011
,
0000
0000
0000
1110
0000
0000
0000
0011
0000
0000
0000
1101
0000
0000
0000
1010
0000
0000
0000
1110
0000
0000
0000
0110
0000
0000
0000
0111
0000
0000
0000
1110
,
0000
0000
0000
2202
0000
3000
0000
0300
0000
0003
0000
1111
0000
0000
0000
1000
0000
0000
0000
0010
0000
0000
0000
0100
0000
0000
0000
0001
0000
0000
0000
0100
,
0000
0010
0000
0000
0000
0000
0000
1101
0000
0000
0000
1011
0000
0000
0000
0100
0000
0000
0000
0001
0000
0000
0000
0010
0000
0000
0000
1000
0000
0000
0000
0100
,
0000
0001
0000
0000
0000
0000
0000
1110
0000
0000
0000
2222
0000
0000
0000
0000
0000
0000
0000
0000
0000
0000
0000
0000
0000
0000
0000
0000
0000
0000
0000
0000
,
0000
0000
0000
0000
0000
0000
0000
3333
0000
0000
0000
0000
0000
0000
0000
0000
0000
0000
0000
0000
0000
0000
0000
0000
0000
0000
0000
0000
0000
0000
0000
0000
;

//---------------dance-single - ----------------
#NOTES:
     dance-single:
     :
     Medium:
     1:
     0.000,0.000,0.000,0.000,0.000,0.000,0.000,0.000,0.000,0.000:
0000
0000
0000
0000
;

//---------------dance-single - ----------------
#NOTES:
     dance-single:
     :
     Easy:
     1:
     0.000,0.000,0.000,0.000,0.000,0.000,0.000,0.000,0.000,0.000:
0000
0000
0000
0000
;
